Топик-объявление: Если у вас или ваших знакомых сохранились видеокассеты с записями мультсериала "Космический Рыцарь и Звездные Шерифы" (Saber Rider and the Star Sheriffs), транслируемого по телеканалу '2x2' в 1992-1993 годах, обязательно свяжитесь с нами через форум или пишите на почту insins<злая-собака>mail.ru

Cartoons

Зарубежные мультсериалы 80,90-х годов с русским переводом
Текущее время: 15-06, 06:42

Часовой пояс: UTC + 3 часа




Начать новую тему Ответить на тему  [ 1 сообщение ] 
Автор Сообщение
 Заголовок сообщения: Театр шедевров братьев Гримм VHSRip
СообщениеДобавлено: 21-01, 00:37 
Не в сети
Новичок
Новичок

Зарегистрирован: 26-12, 15:39
Сообщения: 2
Театр шедевров братьев Гримм / Grimm Masterpiece Theater

Изображение

Страна: Япония
Год выпуска: 1987 г.
Жанр: приключения, фэнтези
Тип: TV
Продолжительность: 20 мин. серия
Режиссер: ----------
Перевод: Профессиональный (полное дублирование)

Описание: Сказки Братьев Гримм и не только)

Доп. информация: hukun06.....................................Автор релиза,сбор видеокассеты, оцифровка кассеты, монтаж

Качество: VHSRip
Тип релиза: Без хардсаба
Формат видео: AVI
Релиз/Автор рипа: hukun06
Видео: XVID, 640x480, 1 467 Kbps, 25.000 fps
Аудио: MP3, 192 Kbps, 44.1 KHz, 2 channels Язык Русский (в составе контейнера) Дубляж

Изображение Изображение Изображение Изображение

Список эпизодов
09.Беляночка и Розочка

Подробные тех. данные
General
Complete name : D:\Kinozal.TV\РуТрекер\Театр шедевров братьев Гримм (9 серия из 24) VHSRip_hukun06.avi
Format : AVI
Format/Info : Audio Video Interleave
File size : 242 MiB
Duration : 20mn 19s
Overall bit rate : 1 668 Kbps
Writing application : VirtualDubMod 1.5.10.3 | www.virtualdub-fr.org || (build 2550/release)
Writing library : VirtualDubMod build 2550/release

Video
ID : 0
Format : MPEG-4 Visual
Format profile : Advanced Simple@L5
Format settings, BVOP : 1
Format settings, QPel : No
Format settings, GMC : No warppoints
Format settings, Matrix : Custom
Codec ID : XVID
Codec ID/Hint : XviD
Duration : 20mn 19s
Bit rate : 1 467 Kbps
Width : 640 pixels
Height : 480 pixels
Display aspect ratio : 4:3
Frame rate : 25.000 fps
Color space : YUV
Chroma subsampling : 4:2:0
Bit depth : 8 bits
Scan type : Progressive
Compression mode : Lossy
Bits/(Pixel*Frame) : 0.191
Stream size : 213 MiB (88%)
Writing library : XviD 64

Audio
ID : 1
Format : MPEG Audio
Format version : Version 1
Format profile : Layer 3
Codec ID : 55
Codec ID/Hint : MP3
Duration : 20mn 19s
Bit rate mode : Constant
Bit rate : 192 Kbps
Channel(s) : 2 channels
Sampling rate : 44.1 KHz
Compression mode : Lossy
Stream size : 27.9 MiB (12%)
Alignment : Split accross interleaves
Interleave, duration : 40 ms (1.00 video frame)
Interleave, preload duration : 500 ms

Rutracker:http://rutracker.org/forum/viewtopic.php?t=3910513


Вернуться к началу
 Профиль  
 
Показать сообщения за:  Поле сортировки  
Начать новую тему Ответить на тему  [ 1 сообщение ] 

Часовой пояс: UTC + 3 часа


Кто сейчас на конференции

Сейчас этот форум просматривают: нет зарегистрированных пользователей и гости: 0


Вы не можете начинать темы
Вы не можете отвечать на сообщения
Вы не можете редактировать свои сообщения
Вы не можете удалять свои сообщения

Найти:
Перейти:  
Powered by Forumenko © 2006–2014
Русская поддержка phpBB